osu file format v14

[General]
AudioFilename: Day to Story (TV Size).mp3
AudioLeadIn: 1500
PreviewTime: 57297
Countdown: 0
SampleSet: Soft
StackLeniency: 0.7
Mode: 0
LetterboxInBreaks: 0
WidescreenStoryboard: 0

[Editor]
DistanceSpacing: 1.2
BeatDivisor: 4
GridSize: 4
TimelineZoom: 2.800004

[Metadata]
Title:Day to Story (TV Size)
TitleUnicode:Day to Story (TV Size)
Artist:Sadohara Kaori
ArtistUnicode:佐土原かおり
Creator:N a s y a
Version:Easy
Source:デート・ア・ライブ Ⅱ
Tags:ending date a live 2 Vettel Nasya N_a_s_y_a
BeatmapID:407295
BeatmapSetID:167604

[Difficulty]
HPDrainRate:2
CircleSize:3
OverallDifficulty:2
ApproachRate:3
SliderMultiplier:0.8
SliderTickRate:1

[Events]
//Background and Video events
0,0,"bg.jpg",0,0
Video,-235,"video.avi",0,0
//Break Periods
//Storyboard Layer 0 (Background)
//Storyboard Layer 1 (Fail)
//Storyboard Layer 2 (Pass)
//Storyboard Layer 3 (Foreground)
//Storyboard Sound Samples
//Background Colour Transformations
3,100,163,162,255

[TimingPoints]
1547,428.571428571429,4,2,2,70,1,0
14881,333.333333333333,4,2,1,70,1,0
15214,-100,4,2,3,70,0,0
15547,-100,4,2,1,70,0,0
16547,-100,4,2,3,70,0,0
16880,-100,4,2,1,70,0,0
17547,-100,4,2,1,70,0,0
17880,-100,4,2,3,70,0,0
18214,-100,4,2,1,70,0,0
18880,-100,4,2,1,70,0,0
19214,-100,4,2,3,70,0,0
19380,-100,4,2,1,70,0,0
21880,-100,4,2,3,70,0,0
22214,-100,4,2,1,70,0,0
23214,-100,4,2,3,70,0,0
23380,-100,4,2,1,70,0,0
24047,-100,4,2,3,70,0,0
24214,-100,4,2,1,70,0,0
24714,-100,4,2,1,70,0,0
26214,-100,4,2,4,70,0,0
26547,-100,4,2,1,70,0,0
28880,-100,4,2,4,70,0,0
29214,-100,4,2,1,70,0,0
31214,-100,4,2,3,70,0,0
31547,-100,4,2,4,70,0,0
31880,-100,4,2,1,70,0,0
32214,-100,4,2,1,70,0,0
32547,-100,4,2,3,70,0,0
32880,-100,4,2,1,70,0,0
33880,-100,4,2,3,70,0,0
34214,-100,4,2,1,70,0,0
35214,-100,4,2,4,70,0,0
35380,-100,4,2,1,70,0,0
36880,-100,4,2,4,70,0,0
37547,-100,4,2,1,70,0,0
37880,-100,4,2,3,70,0,0
38214,-100,4,2,1,70,0,0
39547,-100,4,2,4,70,0,0
40214,-100,4,2,1,70,0,0
40547,-100,4,2,3,70,0,0
40714,-100,4,2,1,70,0,0
41380,-100,4,2,3,70,0,0
41547,-100,4,2,1,70,0,0
43214,-100,4,2,3,70,0,0
43880,-100,4,2,1,70,0,0
44547,-100,4,2,3,70,0,0
44880,-100,4,2,4,70,0,0
45214,-100,4,2,1,70,0,0
48547,-100,4,2,4,70,0,0
48880,-100,4,2,1,70,0,0
49214,-100,4,2,4,70,0,0
49547,-100,4,2,1,70,0,0
50547,-100,4,2,3,70,0,0
50714,-100,4,2,1,70,0,0
52547,-100,4,2,4,70,0,0
53214,-100,4,2,1,70,0,0
53880,-100,4,2,4,70,0,0
54214,-100,4,2,3,70,0,0
54547,-100,4,2,1,70,0,0
55214,-100,4,2,3,70,0,0
55380,-100,4,2,1,70,0,0
57547,-100,4,2,1,70,0,1
57880,-100,4,2,3,70,0,1
58547,-100,4,2,1,70,0,1
59214,-100,4,2,3,70,0,1
60214,-100,4,2,1,70,0,1
62547,-100,4,2,3,70,0,1
63214,-100,4,2,1,70,0,1
63880,-100,4,2,1,70,0,1
64547,-100,4,2,3,70,0,1
65547,-100,4,2,1,70,0,1
67047,-100,4,2,4,70,0,1
67880,-100,4,2,1,70,0,1
69880,-100,4,2,3,70,0,1
70880,-100,4,2,1,70,0,1
73214,-100,4,2,3,70,0,1
73880,-100,4,2,1,70,0,1
75214,-100,4,2,3,70,0,1
75380,-100,4,2,1,70,0,1
78880,-100,4,2,4,70,0,1
79214,-100,4,2,1,70,0,1
81880,-100,4,2,3,70,0,1
82214,-100,4,2,1,70,0,1
82547,-100,4,2,3,70,0,1
82880,-100,4,2,1,70,0,1
84214,-100,4,2,1,70,0,0
86880,-100,4,2,2,70,0,0
88547,-100,4,2,2,60,0,0
88880,-100,4,2,2,50,0,0
89214,-100,4,2,2,40,0,0
89547,-100,4,2,2,30,0,0
90047,-100,4,2,2,5,0,0

[Colours]
Combo1 : 255,255,128
Combo2 : 128,255,255
Combo3 : 255,153,51
Combo4 : 0,128,255

[HitObjects]
136,240,1547,6,0,B|117:154|124:68,1,160,2|2,0:0|0:0,0:0:0:0:
292,128,3261,2,0,B|311:214|304:300,1,160,0|2,0:0|0:0,0:0:0:0:
140,348,4975,5,2,0:0:0:0:
92,180,5832,1,2,0:0:0:0:
264,136,6689,1,0,0:0:0:0:
312,304,7546,1,2,0:0:0:0:
448,192,8404,6,0,L|448:16,1,160,2|2,0:0|0:0,0:0:0:0:
276,60,10118,2,0,L|276:236,1,160,0|2,0:0|0:0,0:0:0:0:
256,192,11832,12,2,13547,0:0:0:0:
24,248,14881,6,0,B|61:169|147:132|226:151,1,240,4|8,3:2|0:0,0:0:0:0:
264,240,16214,2,0,B|322:308|420:319|491:273,1,240,2|8,3:2|0:0,0:0:0:0:
500,184,17547,2,0,B|442:116|344:105|273:151,1,240,2|8,3:2|0:0,0:0:0:0:
236,228,18880,6,0,L|224:348,1,120,4|4,3:2|0:0,0:0:0:0:
128,352,19714,2,0,L|140:232,1,120,4|4,0:0|3:2,0:0:0:0:
180,144,20547,6,0,L|356:132,1,160,8|8,0:0|0:0,0:0:0:0:
416,192,21547,2,0,B|272:288|272:288|244:356,1,240,4|8,3:2|0:0,0:0:0:0:
156,320,22880,6,0,B|88:306|20:316,1,120,4|2,3:2|3:2,0:0:0:0:
12,220,23714,2,0,L|4:88,1,120,2|8,0:0|0:0,0:0:0:0:
148,88,24714,2,0,L|153:185,1,80,12|4,3:2|3:2,0:0:0:0:
226,291,25547,1,4,0:0:0:0:
315,257,25880,6,0,B|327:197|327:197|331:89,1,160,8|8,0:0|0:0,0:0:0:0:
240,65,26880,2,0,L|236:145,1,80,2|8,0:0|0:0,0:0:0:0:
140,138,27547,2,0,L|136:234,2,80,0|8|2,0:0|0:0|0:0,0:0:0:0:
146,42,28547,6,0,B|226:21|306:22,1,160,8|8,0:0|0:0,0:0:0:0:
382,77,29547,2,0,B|431:78|478:71,2,80,2|8|0,0:0|0:0|0:0,0:0:0:0:
295,118,30547,1,8,0:0:0:0:
245,200,30880,6,0,B|177:216|177:216|73:204|73:204|5:220,1,240,2|8,0:0|0:0,0:0:0:0:
19,314,32214,2,0,B|87:298|87:298|191:310|191:310|259:294,1,240,2|8,0:0|0:0,0:0:0:0:
339,250,33547,6,0,L|333:79,1,160,2|2,0:0|0:0,0:0:0:0:
261,26,34547,1,8,0:0:0:0:
200,100,34880,2,0,L|204:220,1,120,4|8,3:2|3:2,0:0:0:0:
256,300,35714,2,0,B|300:296|300:296|384:312,1,120,4|4,0:0|0:0,0:0:0:0:
456,260,36547,6,0,B|466:198|419:141|356:140,1,160,8|8,0:0|0:0,0:0:0:0:
280,120,37547,2,0,B|270:182|317:239|380:240,1,160,2|0,0:0|0:0,0:0:0:0:
456,212,38547,2,0,L|468:120,1,80,8|2,0:0|0:0,0:0:0:0:
380,88,39214,6,0,B|324:84|324:84|280:100|280:100|216:96,1,160,8|8,0:0|0:0,0:0:0:0:
136,140,40214,2,0,B|128:213|136:284,1,120,2|2,0:0|0:3,0:0:0:0:
228,284,41047,2,0,B|269:267|315:282|339:315,1,120,2|4,0:3|0:0,0:0:0:0:
424,352,41880,6,0,L|428:260,1,80,8|2,0:0|0:0,0:0:0:0:
388,184,42547,1,8,0:0:0:0:
300,224,42880,2,0,B|264:248|264:248|240:364,1,160,2|0,0:0|0:0,0:0:0:0:
148,384,43880,1,8,0:0:0:0:
68,328,44214,6,0,B|12:236|108:184|52:88,1,240,4|8,0:0|0:0,0:0:0:0:
120,24,45547,2,0,B|212:24,1,80,4|8,0:0|0:0,0:0:0:0:
248,108,46214,2,0,B|340:108,1,80,8|8,0:0|0:0,0:0:0:0:
424,108,46880,5,4,0:0:0:0:
392,296,47547,1,12,0:0:0:0:
200,296,48214,2,0,L|24:296,2,160,2|4|4,0:3|0:0|0:0,0:0:0:0:
256,112,50214,6,0,L|392:112,1,120,4|2,0:0|0:3,0:0:0:0:
220,296,51547,1,4,0:0:0:0:
124,296,51880,1,8,0:0:0:0:
28,292,52214,6,0,B|14:226|70:161|150:171|187:222,1,240,4|8,0:0|0:0,0:0:0:0:
124,296,53547,2,0,B|164:349|247:350|293:286|281:226,1,240,2|12,0:0|0:0,0:0:0:0:
192,192,54880,6,0,L|60:196,1,120,2|2,0:0|0:3,0:0:0:0:
36,108,55714,2,0,L|132:104,1,80,2|4,0:3|0:0,0:0:0:0:
192,48,56380,2,0,L|196:-4,1,40,4|6,0:3|0:3,0:0:0:0:
444,152,57547,6,0,L|456:312,1,160,4|0,0:0|0:0,0:0:0:0:
372,360,58547,1,8,0:0:0:0:
284,324,58880,2,0,B|232:308|232:308|120:336,2,160,2|0|2,0:0|0:0|0:0,0:0:0:0:
372,360,60547,6,0,B|417:319|426:255|401:205,1,160,8|8,0:0|0:0,0:0:0:0:
352,132,61547,2,0,L|256:112,1,80,4|8,3:2|3:2,0:0:0:0:
200,180,62214,2,0,L|40:144,1,160,0|4,3:2|0:0,0:0:0:0:
44,240,63214,6,0,L|204:276,1,160,8|8,0:2|0:0,0:0:0:0:
284,228,64214,2,0,B|300:112|300:112|284:64,2,160,4|0|4,0:0|0:0|0:0,0:0:0:0:
188,336,66047,6,2,L|100:340,1,80,2|2,0:3|0:3,0:0:0:0:
40,272,66714,2,0,L|56:140,1,120,4|8,0:0|0:0,0:0:0:0:
152,144,67547,2,0,L|132:304,1,160,8|4,0:0|0:0,0:0:0:0:
212,356,68547,6,0,B|268:360|268:360|372:336,1,160,8|8,0:0|0:0,0:0:0:0:
420,256,69547,2,0,L|436:92,2,160,0|0|2,0:0|0:0|0:0,0:0:0:0:
348,320,71214,6,0,B|291:337|234:328|188:300,1,160,8|8,0:0|0:0,0:0:0:0:
100,320,72214,2,0,L|16:356,1,80,4|8,3:2|3:2,0:0:0:0:
12,256,72880,2,0,L|4:84,1,160,2|4,3:2|0:0,0:0:0:0:
76,32,73880,6,0,B|135:17|194:30|240:60,1,160,8|8,0:0|0:0,0:0:0:0:
284,132,74880,2,0,B|339:159|400:164,1,120,4|2,0:0|0:3,0:0:0:0:
476,104,75714,2,0,L|472:20,1,80,2|4,0:3|0:0,0:0:0:0:
336,72,76547,6,0,L|340:156,1,80,8|2,0:0|0:0,0:0:0:0:
244,136,77214,2,0,L|248:220,1,80,8|4,0:0|0:0,0:0:0:0:
254,311,77880,1,12,0:0:0:0:
162,339,78214,2,0,B|118:323|118:323|54:327|54:327|2:307,1,160,8|12,0:0|0:0,0:0:0:0:
4,212,79214,5,8,0:0:0:0:
68,144,79547,2,0,L|168:144,1,80,8|8,0:0|0:0,0:0:0:0:
192,232,80214,2,0,L|292:232,1,80,8|8,0:0|0:0,0:0:0:0:
320,316,80880,2,0,L|420:316,1,80,8|8,0:0|0:0,0:0:0:0:
464,244,81547,6,0,L|476:68,2,160,8|8|8,0:0|0:0|0:0,0:0:0:0:
400,316,83214,1,8,0:0:0:0:
330,250,83547,6,0,B|284:209|215:214|175:257,1,160,8|4,0:0|0:0,0:0:0:0:
256,328,85547,2,0,B|220:244|296:180|247:88,1,240,4|8,0:0|0:0,0:0:0:0:
256,192,86880,12,0,90047,0:0:0:0:
